<?xml version="1.0" standalone="no"?>
<!DOCTYPE svg PUBLIC "-//W3C//DTD SVG 1.1//EN" "http://www.w3.org/Graphics/SVG/1.1/DTD/svg11.dtd">
<svg xmlns="http://www.w3.org/2000/svg">
<defs >
<font id="SourceSansPro" horiz-adv-x="468" ><font-face
    font-family="Source Sans Pro Semibold"
    units-per-em="1000"
    panose-1="2 11 6 3 3 4 3 2 2 4"
    ascent="984"
    descent="-273"
    alphabetic="0" />
<glyph unicode=" " glyph-name="space" horiz-adv-x="205" />
<glyph unicode="!" glyph-name="exclam" horiz-adv-x="315" d="M103 556L100 670H216L212 556L196 215H119L103 556ZM83 66Q83 100 104 122T158 144Q190 144 211 122T232 66Q232 32 211 10T158 -12Q126 -12 105 10T83 66Z" />
<glyph unicode="&quot;" glyph-name="quotedbl" horiz-adv-x="482" d="M82 575L78 688H196L193 575L170 392H104L82 575ZM289 575L285 688H403L400 575L377 392H311L289 575Z" />
<glyph unicode="#" glyph-name="numbersign" horiz-adv-x="513" d="M112 195H35V271H120L136 400H55V476H146L168 650H237L216 476H333L356 650H424L403 476H483V400H394L378 271H463V195H369L346 0H276L299 195H182L158 0H88L112 195ZM308 271L324 400H206L190 271H308Z" />
<glyph unicode="$" glyph-name="dollar" horiz-adv-x="513" d="M384 501Q356 527 330 540T268 554Q227 554 204 534T181 474Q181 444 201 425T251 389T317 356T382 316T433 260T453 176Q453 104 413 56T298 -7V-110H218V-10Q172 -5 126 14T45 66L97 144Q132 116
168 99T245 82Q294 82 318 104T342 168Q342 201 322 223T272 263T206 297T141 336T90 390T70 469Q70 539 110 585T218 644V746H298V646Q346 640 380 619T443 568L384 501Z" />
<glyph unicode="%" glyph-name="percent" horiz-adv-x="841" d="M186 252Q117 252 74 306T30 460Q30 559 73 612T186 666Q255 666 298 613T342 460Q342 361 299 307T186 252ZM186 319Q218 319 238 352T259 460Q259 534 239 566T186 599Q154 599 134 567T113 460Q113
386 133 353T186 319ZM206 -12L563 666H633L277 -12H206ZM655 -12Q586 -12 543 42T499 196Q499 295 542 348T655 402Q724 402 767 349T811 196Q811 97 768 43T655 -12ZM655 55Q687 55 707 88T728 196Q728 270 708 302T655 335Q623 335 603 303T582 196Q582 122
602 89T655 55Z" />
<glyph unicode="&amp;" glyph-name="ampersand" horiz-adv-x="639" d="M138 179Q138 133 170 105T251 77Q278 77 304 87T356 116Q312 153 273 194T201 281Q173 258 156 234T138 179ZM207 504Q207 481 214 458T233 408Q274 434 302 461T330 526Q330 552 318 570T277
588Q246 588 227 565T207 504ZM593 -12Q555 -3 515 14T434 58Q395 26 346 7T237 -12Q188 -12 150 2T84 41T43 99T28 172Q28 206 38 233T65 282T105 323T153 359Q133 397 122 433T111 503Q111 537 122 566T156 618T208 653T276 666Q343 666 381 628T420 527Q420
495 408 468T376 419T331 376T278 337Q308 296 346 258T427 187Q454 223 475 266T510 361H616Q598 299 570 242T504 134Q536 114 566 101T622 82L593 -12Z" />
<glyph unicode="&apos;" glyph-name="quotesingle" horiz-adv-x="275" d="M82 575L78 688H196L193 575L170 392H104L82 575Z" />
<glyph unicode="(" glyph-name="parenleft" horiz-adv-x="324" d="M209 -178Q146 -75 112 35T77 278Q77 411 111 521T209 734L281 702Q224 605 198 497T171 278Q171 167 197 59T281 -146L209 -178V-178Z" />
<glyph unicode=")" glyph-name="parenright" horiz-adv-x="324" d="M43 -146Q100 -49 126 59T153 278Q153 389 127 497T43 702L115 734Q178 631 212 521T247 278Q247 145 213 35T115 -178L43 -146V-146Z" />
<glyph unicode="*" glyph-name="asterisk" horiz-adv-x="438" d="M92 421L150 519L48 564L67 624L176 599L187 712H250L261 599L371 624L390 564L287 519L345 421L294 384L219 471L143 384L92 421Z" />
<glyph unicode="+" glyph-name="plus" horiz-adv-x="513" d="M213 288H34V372H213V561H300V372H479V288H300V99H213V288Z" />
<glyph unicode="," glyph-name="comma" horiz-adv-x="275" d="M47 -119Q95 -100 121 -68T148 2H139Q110 2 88 20T65 73Q65 105 87 124T142 144Q183 144 205 113T228 26Q228 -48 188 -102T72 -182L47 -119Z" />
<glyph unicode="-" glyph-name="hyphen" horiz-adv-x="322" d="M42 294H280V210H42V294Z" />
<glyph unicode="." glyph-name="period" horiz-adv-x="275" d="M63 66Q63 100 84 122T138 144Q170 144 191 122T212 66Q212 32 191 10T138 -12Q106 -12 85 10T63 66Z" />
<glyph unicode="/" glyph-name="slash" horiz-adv-x="344" d="M245 710H323L90 -160H12L245 710Z" />
<glyph unicode="0" glyph-name="zero" horiz-adv-x="513" d="M256 -12Q156 -12 98 73T40 321Q40 483 98 565T256 648Q356 648 414 565T472 321Q472 159 414 74T256 -12ZM256 78Q279 78 298 90T332 132T354 207T362 321Q362 388 354 433T332 507T299 546T256 558Q233
558 214 547T180 507T158 434T150 321Q150 253 158 207T180 132T213 91T256 78Z" />
<glyph unicode="1" glyph-name="one" horiz-adv-x="513" d="M74 94H216V512H99V584Q147 593 181 605T246 636H332V94H457V0H74V94Z" />
<glyph unicode="2" glyph-name="two" horiz-adv-x="513" d="M38 67Q104 131 157 185T248 285T306 371T326 447Q326 498 299 527T221 557Q184 557 154 536T97 486L33 550Q77 597 123 622T236 648Q282 648 319 634T382 595T422 533T437 453Q437 411 419 368T369
280T295 188T206 91Q231 93 260 95T312 98H468V0H38V67Z" />
<glyph unicode="3" glyph-name="three" horiz-adv-x="513" d="M79 152Q108 123 145 103T230 82Q282 82 314 107T347 178Q347 203 338 223T308 257T250 278T160 286V370Q207 370 238 377T289 398T317 431T326 472Q326 512 301 534T232 557Q194 557 164 541T104
497L45 568Q86 604 132 626T236 648Q282 648 320 637T385 605T427 552T442 480Q442 426 413 390T331 334V330Q388 315 425 275T463 172Q463 128 446 94T398 37T327 1T240 -12Q162 -12 110 14T24 78L79 152Z" />
<glyph unicode="4" glyph-name="four" horiz-adv-x="513" d="M299 253V397Q299 425 300 463T304 529H300Q288 504 275 480T248 430L132 253H299ZM487 164H407V0H299V164H18V242L270 636H407V253H487V164Z" />
<glyph unicode="5" glyph-name="five" horiz-adv-x="513" d="M77 150Q106 123 142 103T226 82Q280 82 314 114T349 204Q349 261 317 292T232 323Q201 323 180 315T130 287L75 322L94 636H434V539H194L181 385Q201 395 220 400T265 406Q306 406 342 394T406 358T449
296T465 207Q465 155 447 114T397 45T326 3T241 -12Q164 -12 112 14T24 76L77 150Z" />
<glyph unicode="6" glyph-name="six" horiz-adv-x="513" d="M273 76Q313 76 340 107T368 197Q368 254 342 282T268 310Q241 310 211 294T154 237Q163 152 194 114T273 76ZM402 506Q385 527 358 540T301 554Q271 554 245 542T198 503T166 430T151 319Q179 354 216
374T289 394Q330 394 364 382T423 346T461 284T475 197Q475 149 459 111T416 45T353 3T275 -12Q228 -12 186 6T113 63T63 160T44 299Q44 392 65 458T120 566T200 628T294 648Q352 648 393 627T464 576L402 506Z" />
<glyph unicode="7" glyph-name="seven" horiz-adv-x="513" d="M168 0Q172 85 183 155T214 290T267 414T345 539H44V636H471V566Q415 497 381 435T326 307T298 167T285 0H168V0Z" />
<glyph unicode="8" glyph-name="eight" horiz-adv-x="513" d="M142 175Q142 127 176 99T259 70Q305 70 334 95T364 165Q364 191 352 209T320 242T271 269T211 294Q181 272 162 242T142 175ZM299 359Q325 385 338 412T352 469Q352 511 328 538T258 566Q221 566
196 544T171 479Q171 455 181 437T208 406T249 381T299 359ZM41 163Q41 193 50 217T76 262T112 298T156 326V330Q119 356 94 392T68 479Q68 518 82 549T122 602T183 636T260 648Q303 648 337 636T396 601T434 547T447 476Q447 452 440 431T420 391T393 357T362
330V326Q384 314 404 299T439 263T463 218T472 161Q472 124 457 93T413 38T345 1T257 -12Q210 -12 171 1T103 37T58 92T41 163Z" />
<glyph unicode="9" glyph-name="nine" horiz-adv-x="513" d="M244 326Q271 326 301 343T358 400Q349 484 317 522T238 560Q199 560 171 529T143 440Q143 383 169 355T244 326ZM109 130Q127 109 154 96T211 82Q241 82 267 94T314 133T346 206T361 317Q333 282 295
263T222 243Q181 243 147 255T89 291T51 353T37 440Q37 488 53 526T96 592T159 633T237 648Q283 648 325 630T398 573T448 477T467 338Q467 245 447 179T392 71T312 8T217 -12Q160 -12 118 9T47 60L109 130Z" />
<glyph unicode=":" glyph-name="colon" horiz-adv-x="275" d="M63 408Q63 442 84 464T138 486Q170 486 191 464T212 408Q212 374 191 352T138 330Q106 330 85 352T63 408ZM63 66Q63 100 84 122T138 144Q170 144 191 122T212 66Q212 32 191 10T138 -12Q106 -12
85 10T63 66Z" />
<glyph unicode=";" glyph-name="semicolon" horiz-adv-x="275" d="M63 408Q63 442 84 464T138 486Q170 486 191 464T212 408Q212 374 191 352T138 330Q106 330 85 352T63 408ZM47 -119Q95 -100 121 -68T148 2H139Q110 2 88 20T65 73Q65 105 87 124T142 144Q183
144 205 113T228 26Q228 -48 188 -102T72 -182L47 -119Z" />
<glyph unicode="&lt;" glyph-name="less" horiz-adv-x="513" d="M34 374L479 547V450L286 382L151 334V330L286 282L479 214V117L34 290V374Z" />
<glyph unicode="=" glyph-name="equal" horiz-adv-x="513" d="M34 484H479V400H34V484ZM34 517H479V433H34V517Z" />
<glyph unicode="&gt;" glyph-name="greater" horiz-adv-x="513" d="M479 290L34 117V214L227 282L362 330V334L227 382L34 450V547L479 374V290Z" />
<glyph unicode="?" glyph-name="question" horiz-adv-x="444" d="M157 215Q152 251 159 281T181 336T214 382T249 424T277 465T288 508Q288 544 267 566T207 588Q176 588 151 574T104 536L40 595Q72 633 116 657T215 682Q255 682 289 672T348 640T386 588T400
516Q400 484 389 459T360 410T324 366T289 322T264 273T258 215H157ZM134 66Q134 100 155 122T208 144Q240 144 261 122T283 66Q283 32 262 10T208 -12Q176 -12 155 10T134 66Z" />
<glyph unicode="@" glyph-name="at" horiz-adv-x="875" d="M50 204Q50 307 85 390T179 533T317 625T484 658Q562 658 625 633T733 563T802 454T826 314Q826 247 807 197T756 112T687 61T612 44Q569 44 539 63T502 120H500Q477 90 444 71T379 52Q324 52 289 90T253
198Q253 241 267 283T308 360T370 415T450 437Q502 437 528 388H530L543 429H616L573 218Q548 117 623 117Q646 117 669 130T710 169T739 229T750 310Q750 367 734 417T684 504T598 564T475 586Q409 586 347 559T237 483T160 364T130 208Q130 134 153 78T216 -15T310
-72T425 -91Q467 -91 508 -80T582 -50L609 -114Q521 -164 416 -164Q342 -164 276 -141T159 -72T80 43T50 204ZM342 205Q342 164 358 146T403 127Q421 127 440 139T482 179L508 326Q486 361 453 361Q427 361 407 346T372 308T350 258T342 205Z" />
<glyph unicode="A" glyph-name="A" horiz-adv-x="558" d="M361 268L338 348Q322 400 308 455T279 564H275Q261 509 247 455T217 348L194 268H361ZM387 177H167L116 0H-2L211 654H347L560 0H438L387 177Z" />
<glyph unicode="B" glyph-name="B" horiz-adv-x="597" d="M83 654H292Q343 654 385 646T459 619T508 569T526 493Q526 446 499 406T414 351V347Q485 335 522 297T560 192Q560 143 541 107T489 47T409 12T309 0H83V654ZM282 383Q351 383 381 408T412 479Q412 524
380 544T284 564H199V383H282ZM297 90Q369 90 408 117T447 200Q447 251 409 275T297 300H199V90H297Z" />
<glyph unicode="C" glyph-name="C" horiz-adv-x="576" d="M49 325Q49 405 72 468T137 576T233 643T351 666Q411 666 458 641T537 583L472 511Q447 536 419 550T352 565Q311 565 278 549T220 502T182 427T168 328Q168 216 216 153T348 89Q392 89 424 106T485 154L550
83Q510 37 459 13T346 -12Q283 -12 229 10T135 75T72 181T49 325Z" />
<glyph unicode="D" glyph-name="D" horiz-adv-x="625" d="M83 654H258Q408 654 492 573T576 330Q576 249 555 187T493 84T395 21T264 0H83V654ZM250 94Q350 94 403 151T457 330Q457 450 403 505T250 560H199V94H250Z" />
<glyph unicode="E" glyph-name="E" horiz-adv-x="538" d="M83 654H477V556H199V389H434V291H199V98H487V0H83V654Z" />
<glyph unicode="F" glyph-name="F" horiz-adv-x="510" d="M83 654H478V556H199V371H437V273H199V0H83V654Z" />
<glyph unicode="G" glyph-name="G" horiz-adv-x="628" d="M49 325Q49 405 73 468T139 576T238 643T361 666Q395 666 424 659T477 641T521 614T556 583L492 511Q467 535 438 550T362 565Q318 565 283 549T222 502T182 427T168 328Q168 216 218 153T368 89Q396 89
421 96T462 118V259H338V354H566V66Q532 33 477 11T354 -12Q289 -12 233 10T136 75T72 181T49 325Z" />
<glyph unicode="H" glyph-name="H" horiz-adv-x="663" d="M83 654H199V391H464V654H580V0H464V290H199V0H83V654Z" />
<glyph unicode="I" glyph-name="I" horiz-adv-x="282" d="M83 654H199V0H83V654Z" />
<glyph unicode="J" glyph-name="J" horiz-adv-x="494" d="M104 158Q124 122 150 106T206 89Q252 89 275 117T298 215V654H414V205Q414 160 403 121T368 52T307 5T219 -12Q150 -12 103 16T24 99L104 158Z" />
<glyph unicode="K" glyph-name="K" horiz-adv-x="597" d="M83 654H199V357H202L435 654H564L363 399L598 0H470L293 308L199 191V0H83V654Z" />
<glyph unicode="L" glyph-name="L" horiz-adv-x="502" d="M83 654H199V98H471V0H83V654Z" />
<glyph unicode="M" glyph-name="M" horiz-adv-x="745" d="M83 654H211L329 332L372 208H376L418 332L534 654H662V0H553V299Q553 322 554 349T558 403T563 457T568 507H564L511 358L398 61H344L231 358L179 507H175Q177 484 179 458T184 404T188 349T190 299V0H83V654Z" />
<glyph unicode="N" glyph-name="N" horiz-adv-x="656" d="M83 654H202L406 286L473 147H477Q473 198 468 256T462 370V654H573V0H454L250 368L183 507H179Q183 455 188 398T194 286V0H83V654Z" />
<glyph unicode="O" glyph-name="O" horiz-adv-x="674" d="M337 -12Q273 -12 220 11T129 79T70 187T49 330Q49 409 70 471T129 577T220 643T337 666Q401 666 454 643T545 577T605 472T626 330Q626 250 605 187T546 80T454 12T337 -12ZM337 89Q376 89 407 106T460
154T494 230T506 330Q506 440 461 502T337 565Q259 565 214 503T168 330Q168 275 180 231T214 155T267 106T337 89Z" />
<glyph unicode="P" glyph-name="P" horiz-adv-x="592" d="M83 654H303Q357 654 402 644T481 610T533 548T552 452Q552 398 533 358T481 292T402 253T303 240H199V0H83V654ZM294 333Q438 333 438 452Q438 514 402 537T294 561H199V333H294Z" />
<glyph unicode="Q" glyph-name="Q" horiz-adv-x="674" d="M168 330Q168 273 180 227T214 149T267 100T337 83Q376 83 407 100T460 149T494 227T506 330Q506 440 461 502T337 565Q259 565 214 503T168 330ZM650 -153Q633 -161 606 -166T545 -171Q447 -171 381 -125T283
-7Q230 2 187 29T113 100T66 201T49 330Q49 409 70 471T129 577T220 643T337 666Q401 666 454 643T545 577T605 472T626 330Q626 262 611 206T566 106T497 35T406 -4Q429 -43 469 -60T558 -77Q580 -77 597 -74T629 -66L650 -153Z" />
<glyph unicode="R" glyph-name="R" horiz-adv-x="599" d="M199 348H292Q359 348 394 376T430 460Q430 517 395 539T292 561H199V348ZM440 0L299 256H199V0H83V654H304Q355 654 399 644T475 612T525 552T544 460Q544 385 509 339T414 273L570 0H440Z" />
<glyph unicode="S" glyph-name="S" horiz-adv-x="545" d="M106 163Q141 130 186 110T276 89Q332 89 361 112T390 173Q390 193 383 207T362 231T330 251T289 269L199 308Q175 318 152 333T109 369T79 418T67 482Q67 521 83 554T129 613T198 652T287 666Q344 666
397 644T488 583L429 509Q397 535 363 550T287 565Q240 565 212 545T184 488Q184 469 192 456T215 432T249 413T288 396L377 359Q406 347 430 331T471 294T499 246T509 182Q509 142 493 107T447 46T373 4T274 -12Q208 -12 147 13T38 84L106 163Z" />
<glyph unicode="T" glyph-name="T" horiz-adv-x="546" d="M215 556H26V654H520V556H331V0H215V556Z" />
<glyph unicode="U" glyph-name="U" horiz-adv-x="655" d="M80 654H196V278Q196 225 205 189T232 130T274 99T328 89Q358 89 383 98T426 130T454 188T464 278V654H575V287Q575 206 558 150T509 57T431 5T328 -12Q271 -12 226 4T148 57T98 149T80 287V654Z" />
<glyph unicode="V" glyph-name="V" horiz-adv-x="536" d="M-4 654H119L211 325Q227 269 239 219T269 112H273Q290 169 302 219T330 325L421 654H540L337 0H200L-4 654Z" />
<glyph unicode="W" glyph-name="W" horiz-adv-x="800" d="M18 654H137L194 324Q202 271 210 219T226 115H230Q241 167 251 219T273 324L353 654H454L534 324Q545 273 556 221T578 115H582Q590 168 597 220T613 324L670 654H781L656 0H512L431 344Q423 382 416
419T402 495H398Q391 457 384 420T368 344L289 0H148L18 654Z" />
<glyph unicode="X" glyph-name="X" horiz-adv-x="541" d="M199 337L25 654H154L226 509Q238 486 249 462T276 409H280Q292 438 302 462T324 509L393 654H516L342 332L528 0H399L319 154Q306 180 294 205T266 261H262Q249 231 238 206T214 154L136 0H13L199 337Z" />
<glyph unicode="Y" glyph-name="Y" horiz-adv-x="501" d="M192 243L-4 654H120L191 487Q205 450 219 416T249 343H253Q269 381 284 415T313 487L384 654H505L308 243V0H192V243Z" />
<glyph unicode="Z" glyph-name="Z" horiz-adv-x="540" d="M40 70L356 556H69V654H500V584L183 98H502V0H40V70Z" />
<glyph unicode="[" glyph-name="bracketleft" horiz-adv-x="324" d="M90 708H286V645H177V-89H286V-152H90V708Z" />
<glyph unicode="\" glyph-name="backslash" horiz-adv-x="344" d="M21 710H99L333 -160H255L21 710Z" />
<glyph unicode="]" glyph-name="bracketright" horiz-adv-x="324" d="M147 -89V645H38V708H234V-152H38V-89H147Z" />
<glyph unicode="^" glyph-name="asciicircum" horiz-adv-x="513" d="M208 670H304L458 279H361L306 430L258 565H254L207 430L152 279H55L208 670Z" />
<glyph unicode="_" glyph-name="underscore" horiz-adv-x="500" d="M488 -64V-133H12V-64H488Z" />
<glyph unicode="`" glyph-name="grave" horiz-adv-x="549" d="M144 719H258L348 573H262L144 719Z" />
<glyph unicode="a" glyph-name="a" horiz-adv-x="523" d="M52 132Q52 211 121 254T341 314Q341 333 336 350T321 381T294 402T252 410Q215 410 181 396T114 362L72 439Q113 465 163 484T273 503Q366 503 411 449T456 291V0H362L353 54H350Q317 26 280 7T198 -12Q133
-12 93 27T52 132ZM164 141Q164 108 183 93T234 78Q264 78 289 92T341 132V242Q291 236 257 226T203 204T173 175T164 141Z" />
<glyph unicode="b" glyph-name="b" horiz-adv-x="564" d="M73 706H188V524L185 442Q216 469 252 486T327 503Q373 503 409 486T470 436T508 357T521 254Q521 191 504 142T457 58T390 6T311 -12Q277 -12 243 4T177 50H174L164 0H73V706ZM188 124Q214 101 239 92T287
83Q336 83 369 125T402 252Q402 326 377 367T296 408Q244 408 188 353V124Z" />
<glyph unicode="c" glyph-name="c" horiz-adv-x="462" d="M41 245Q41 306 61 354T115 435T193 485T287 503Q335 503 370 487T431 446L376 373Q356 390 336 399T293 409Q233 409 196 365T159 245Q159 171 195 127T290 82Q320 82 345 94T391 124L439 51Q404 20 362
4T278 -12Q228 -12 185 5T109 55T59 136T41 245Z" />
<glyph unicode="d" glyph-name="d" horiz-adv-x="564" d="M43 245Q43 305 60 353T107 434T173 485T251 503Q293 503 322 489T380 449L376 528V706H491V0H396L388 53H384Q357 26 321 7T245 -12Q152 -12 98 55T43 245ZM162 246Q162 166 190 125T273 83Q328 83 376
138V367Q350 390 326 399T276 408Q228 408 195 366T162 246Z" />
<glyph unicode="e" glyph-name="e" horiz-adv-x="507" d="M41 245Q41 305 60 353T110 434T183 485T267 503Q317 503 355 486T418 438T457 364T470 270Q470 236 465 216H153Q161 149 199 113T298 77Q330 77 357 86T412 113L451 41Q416 18 373 3T283 -12Q232 -12
188 5T111 56T60 136T41 245ZM370 289Q370 348 346 381T270 414Q226 414 193 383T152 289H370Z" />
<glyph unicode="f" glyph-name="f" horiz-adv-x="317" d="M324 615Q297 627 270 627Q208 627 208 544V491H304V400H208V0H93V400H27V486L93 491V542Q93 580 102 612T131 668T181 705T256 718Q282 718 305 713T346 701L324 615Z" />
<glyph unicode="g" glyph-name="g" horiz-adv-x="520" d="M136 -72Q136 -105 169 -123T262 -142Q322 -142 358 -119T395 -63Q395 -34 373 -24T308 -14H241Q201 -14 174 -7Q136 -36 136 -72ZM40 -89Q40 -58 58 -32T110 16V20Q91 32 79 52T66 102Q66 131 82 154T120
193V197Q95 216 76 249T56 327Q56 369 72 402T114 457T176 491T250 503Q270 503 288 500T322 491H498V406H408Q420 392 428 371T436 323Q436 282 422 251T382 199T323 167T250 156Q234 156 217 159T183 169Q172 159 166 149T159 122Q159 101 176 89T239 77H326Q415
77 460 49T506 -44Q506 -80 488 -112T435 -167T353 -203T244 -217Q200 -217 163 -209T98 -185T56 -145T40 -89ZM250 228Q285 228 310 253T335 327Q335 373 311 398T250 424Q214 424 189 399T164 327Q164 279 189 254T250 228Z" />
<glyph unicode="h" glyph-name="h" horiz-adv-x="558" d="M73 706H188V524L184 429Q215 458 252 480T341 503Q420 503 456 453T492 308V0H377V293Q377 354 359 379T300 404Q268 404 244 389T188 343V0H73V706Z" />
<glyph unicode="i" glyph-name="i" horiz-adv-x="262" d="M131 577Q100 577 80 595T60 642Q60 671 80 689T131 708Q162 708 182 690T202 642Q202 613 182 595T131 577ZM73 491H188V0H73V491Z" />
<glyph unicode="j" glyph-name="j" horiz-adv-x="263" d="M74 491H190V-25Q190 -64 182 -97T156 -154T107 -192T34 -206Q7 -206 -12 -202T-46 -193L-24 -107Q-14 -110 -4 -112T18 -115Q51 -115 62 -93T74 -27V491ZM132 577Q102 577 82 595T61 642Q61 671 81 689T132
708Q163 708 183 690T204 642Q204 613 184 595T132 577Z" />
<glyph unicode="k" glyph-name="k" horiz-adv-x="522" d="M73 706H186V265H189L371 491H497L329 291L514 0H389L263 213L186 125V0H73V706Z" />
<glyph unicode="l" glyph-name="l" horiz-adv-x="271" d="M73 706H188V120Q188 99 196 91T213 82Q217 82 220 82T231 84L246 -2Q223 -12 185 -12Q123 -12 98 25T73 126V706Z" />
<glyph unicode="m" glyph-name="m" horiz-adv-x="843" d="M73 491H168L176 424H180Q211 457 247 480T330 503Q384 503 416 480T466 415Q501 453 539 478T624 503Q702 503 739 453T776 308V0H660V293Q660 354 642 379T585 404Q539 404 482 343V0H367V293Q367 354
349 379T291 404Q245 404 188 343V0H73V491Z" />
<glyph unicode="n" glyph-name="n" horiz-adv-x="560" d="M73 491H168L176 425H180Q213 457 251 480T341 503Q420 503 456 453T492 308V0H377V293Q377 354 359 379T300 404Q268 404 244 389T188 343V0H73V491Z" />
<glyph unicode="o" glyph-name="o" horiz-adv-x="549" d="M41 245Q41 306 60 354T111 435T186 485T274 503Q320 503 362 486T437 435T488 354T508 245Q508 184 489 136T437 55T363 5T274 -12Q228 -12 186 5T112 55T60 136T41 245ZM159 245Q159 171 189 127T274
82Q328 82 359 126T390 245Q390 320 359 364T274 409Q220 409 190 365T159 245Z" />
<glyph unicode="p" glyph-name="p" horiz-adv-x="564" d="M188 -40V-194H73V491H168L176 439H180Q211 465 249 484T328 503Q374 503 409 486T470 435T508 356T521 253Q521 190 504 141T457 58T390 6T311 -12Q279 -12 247 2T185 42L188 -40ZM188 124Q215 101 240
92T287 83Q336 83 369 125T402 252Q402 326 377 367T296 408Q244 408 188 353V124Z" />
<glyph unicode="q" glyph-name="q" horiz-adv-x="561" d="M43 245Q43 305 60 353T107 434T173 485T251 503Q293 503 324 489T387 444H390L400 491H491V-194H376V-33L380 48Q353 22 318 5T245 -12Q152 -12 98 55T43 245ZM162 246Q162 166 190 125T273 83Q328 83
376 138V367Q350 390 326 399T276 408Q228 408 195 366T162 246Z" />
<glyph unicode="r" glyph-name="r" horiz-adv-x="373" d="M73 491H168L176 404H180Q206 452 243 477T319 503Q354 503 375 493L355 393Q342 397 331 399T304 401Q275 401 243 379T188 300V0H73V491Z" />
<glyph unicode="s" glyph-name="s" horiz-adv-x="431" d="M78 130Q111 104 143 90T214 75Q254 75 273 91T292 134Q292 149 283 160T259 181T225 197T187 213Q163 222 138 234T94 263T62 302T49 356Q49 421 97 462T228 503Q279 503 320 485T391 444L338 374Q312
393 286 404T230 416Q193 416 176 401T158 362Q158 347 166 337T189 318T221 303T260 289Q285 280 310 269T355 240T388 199T401 140Q401 108 389 81T352 33T292 0T210 -12Q159 -12 110 7T24 56L78 130Z" />
<glyph unicode="t" glyph-name="t" horiz-adv-x="361" d="M90 400H20V486L96 491L110 625H206V491H331V400H206V166Q206 80 275 80Q288 80 301 83T326 91L346 6Q326 -1 301 -6T246 -12Q203 -12 174 1T126 37T99 93T90 166V400Z" />
<glyph unicode="u" glyph-name="u" horiz-adv-x="556" d="M68 491H183V198Q183 137 201 112T259 87Q291 87 315 103T368 155V491H483V0H389L380 72H377Q345 34 308 11T219 -12Q140 -12 104 38T68 183V491Z" />
<glyph unicode="v" glyph-name="v" horiz-adv-x="495" d="M12 491H129L207 236Q217 200 227 163T248 88H252Q263 126 273 163T294 236L372 491H483L316 0H183L12 491Z" />
<glyph unicode="w" glyph-name="w" horiz-adv-x="748" d="M24 491H140L199 236Q207 201 212 166T225 95H229Q236 131 243 166T260 236L324 491H429L494 236Q503 201 511 166T527 95H531Q538 131 544 166T557 236L616 491H724L599 0H462L405 229Q397 264 390 298T375
372H371Q364 333 357 298T342 228L286 0H154L24 491Z" />
<glyph unicode="x" glyph-name="x" horiz-adv-x="481" d="M170 256L24 491H148L203 398Q214 378 225 357T248 315H252Q261 335 271 356T290 398L337 491H456L311 243L467 0H343L283 97Q271 119 259 141T233 184H229Q218 163 208 142T186 97L134 0H14L170 256Z" />
<glyph unicode="y" glyph-name="y" horiz-adv-x="495" d="M63 -102Q70 -104 79 -106T98 -109Q137 -109 160 -86T196 -25L205 6L12 491H129L214 250Q225 218 235 183T257 112H261Q270 146 279 181T298 250L372 491H483L305 -22Q290 -64 272 -97T231 -153T177 -189T106
-202Q86 -202 71 -200T42 -192L63 -102V-102Z" />
<glyph unicode="z" glyph-name="z" horiz-adv-x="443" d="M34 62L266 400H60V491H410V430L179 92H418V0H34V62Z" />
<glyph unicode="{" glyph-name="braceleft" horiz-adv-x="324" d="M286 -89V-152H232Q200 -152 177 -146T139 -123T117 -81T109 -14Q109 13 110 35T113 79T116 121T118 167Q118 181 114 194T100 218T74 236T32 243V313Q57 313 73 320T100 337T114 361T118 388Q118
413 117 434T114 477T111 520T109 570Q109 610 116 636T139 679T177 701T232 708H286V645H263Q227 645 215 628T202 565Q202 522 204 482T207 393Q207 339 191 314T140 280V276Q175 267 191 242T207 163Q207 115 205 75T202 -9Q202 -54 214 -71T263 -89H286Z" />
<glyph unicode="|" glyph-name="bar" horiz-adv-x="255" d="M89 750H166V-250H89V750Z" />
<glyph unicode="}" glyph-name="braceright" horiz-adv-x="324" d="M61 -89Q97 -89 109 -72T122 -9Q122 34 120 74T117 163Q117 216 133 241T184 276V280Q149 289 133 314T117 393Q117 441 119 481T122 565Q122 610 110 627T61 645H38V708H92Q123 708 146 702T185
679T207 637T215 570Q215 543 214 521T211 477T208 435T206 388Q206 374 210 361T224 338T250 320T292 313V243Q267 243 251 236T224 219T210 195T206 167Q206 143 207 122T210 79T213 36T215 -14Q215 -54 208 -80T185 -123T147 -145T92 -152H38V-89H61Z" />
<glyph unicode="~" glyph-name="asciitilde" horiz-adv-x="513" d="M32 315Q64 367 99 389T170 412Q200 412 223 400T267 372T305 345T345 332Q387 332 419 391L480 344Q448 293 413 271T343 248Q313 248 290 260T246 288T208 315T168 328Q126 328 94 269L32 315Z" />
<glyph unicode="&#xa0;" glyph-name="uni00A0" horiz-adv-x="205" />
<glyph unicode="&#xa1;" glyph-name="exclamdown" horiz-adv-x="315" d="M212 -65L216 -179H100L103 -65L119 276H196L212 -65ZM232 426Q232 391 211 369T158 347Q126 347 105 369T83 426Q83 459 104 481T158 503Q190 503 211 481T232 426Z" />
<glyph unicode="&#xa2;" glyph-name="cent" horiz-adv-x="513" d="M269 455Q223 440 198 402T173 308Q173 252 198 214T269 162V455ZM471 123Q442 97 407 82T335 61V-37H269V62Q175 74 118 137T61 308Q61 360 77 402T120 476T186 526T269 553V654H335V556Q377
554 408 538T463 499L409 428Q374 459 335 463V155Q361 157 383 169T423 196L471 123Z" />
<glyph unicode="&#xa3;" glyph-name="sterling" horiz-adv-x="513" d="M476 98V0H51V71Q99 95 128 138T157 237Q157 248 156 257T153 278H53V347L120 352H132Q124 378 118 403T111 454Q111 499 125 535T166 596T230 634T311 648Q366 648 405 627T475 570L411 507Q392
529 371 541T321 554Q274 554 248 527T222 448Q222 423 227 400T239 352H393V278H256Q259 257 259 236Q259 191 246 161T206 102V98H476Z" />
<glyph unicode="&#xa4;" glyph-name="currency" horiz-adv-x="513" d="M23 153L85 216Q68 239 59 267T50 329Q50 363 59 391T85 443L23 506L82 566L150 496Q198 527 256 527Q314 527 362 496L431 566L490 506L427 443Q444 420 453 392T462 329Q462 296 453 268T427
216L490 153L431 93L362 163Q339 147 312 140T256 132Q228 132 201 139T151 163L82 93L23 153ZM154 329Q154 277 184 246T256 214Q299 214 328 245T358 329Q358 382 329 413T256 445Q214 445 184 414T154 329Z" />
<glyph unicode="&#xa5;" glyph-name="yen" horiz-adv-x="513" d="M137 636L201 485Q215 452 228 419T256 352H260Q274 386 287 419T315 485L379 636H495L340 330H472V271H314V212H472V152H314V0H198V152H41V212H198V271H41V330H172L18 636H137Z" />
<glyph unicode="&#xa6;" glyph-name="brokenbar" horiz-adv-x="255" d="M89 750H166V302H89V750ZM166 209V-250H89V209H166Z" />
<glyph unicode="&#xa7;" glyph-name="section" horiz-adv-x="513" d="M140 342Q140 314 158 296T203 262T264 234T327 203Q350 215 361 232T373 275Q373 303 356 322T311 357T250 385T187 415Q164 401 152 384T140 342ZM372 553Q349 573 322 586T264 600Q229 600
214 586T198 550Q198 527 218 512T269 482T335 452T401 414T451 361T472 284Q472 238 450 207T389 153Q401 137 408 118T415 73Q415 41 403 15T368 -32T312 -63T238 -74Q184 -74 135 -54T54 4L122 64Q147 39 175 26T238 12Q273 12 291 28T310 68Q310 92 290 108T240
138T176 167T111 203T61 256T41 334Q41 375 63 408T124 463Q94 496 94 545Q94 575 104 601T136 646T187 676T258 687Q311 687 353 668T426 626L372 553Z" />
<glyph unicode="&#xa8;" glyph-name="dieresis" horiz-adv-x="549" d="M181 579Q155 579 139 596T122 639Q122 664 138 681T181 698Q207 698 224 681T241 639Q241 613 224 596T181 579ZM367 579Q341 579 324 596T307 639Q307 664 324 681T367 698Q393 698 409
681T426 639Q426 613 410 596T367 579Z" />
<glyph unicode="&#xa9;" glyph-name="copyright" horiz-adv-x="747" d="M47 324Q47 401 73 462T144 566T248 631T374 654Q440 654 499 632T602 566T673 462T700 324Q700 247 674 186T603 81T499 14T374 -10Q308 -10 249 13T145 80T74 185T47 324ZM105 324Q105
261 126 209T183 120T269 63T374 42Q430 42 479 62T564 120T621 209T642 324Q642 387 621 438T564 526T479 583T374 603Q318 603 269 583T184 527T126 439T105 324ZM196 323Q196 367 211 402T253 462T314 500T385 514Q430 514 460 497T514 456L469 406Q450 424
432 433T391 443Q340 443 311 409T282 323Q282 265 310 231T387 197Q416 197 437 208T478 236L517 180Q489 157 458 142T384 126Q344 126 310 139T250 178T211 240T196 323Z" />
<glyph unicode="&#xaa;" glyph-name="ordfeminine" horiz-adv-x="352" d="M133 256Q87 256 60 283T33 353Q33 406 78 434T226 472Q224 499 212 515T170 531Q147 531 123 522T75 499L45 554Q74 572 109 585T184 598Q309 598 309 456V264H242L234 299H230Q210 281
186 269T133 256ZM160 320Q177 320 193 328T226 353V423Q163 416 139 400T114 360Q114 320 160 320Z" />
<glyph unicode="&#xab;" glyph-name="guillemotleft" horiz-adv-x="456" d="M47 210V294L182 443L228 406L113 252L228 97L182 61L47 210ZM221 210V294L356 443L402 406L287 252L402 97L356 61L221 210Z" />
<glyph unicode="&#xac;" glyph-name="logicalnot" horiz-adv-x="513" d="M34 372H479V99H392V288H34V372Z" />
<glyph unicode="&#xad;" glyph-name="uni00AD" horiz-adv-x="322" d="M42 294H280V210H42V294Z" />
<glyph unicode="&#xae;" glyph-name="registered" horiz-adv-x="443" d="M221 315Q181 315 146 329T85 370T43 433T28 514Q28 558 43 595T84 658T146 699T221 714Q261 714 296 700T357 659T399 595T414 514Q414 470 399 434T358 371T296 330T221 315ZM221 358Q252
358 279 369T325 401T356 450T367 514Q367 549 356 578T326 628T279 660T221 672Q189 672 163 661T117 628T86 578T75 514Q75 479 86 451T116 402T162 370T221 358ZM144 616H227Q260 616 283 601T307 551Q307 534 298 519T270 496L314 417H261L228 482H194V417H144V616ZM217
518Q234 518 244 526T254 548Q254 561 246 569T218 578H194V518H217Z" />
<glyph unicode="&#xaf;" glyph-name="overscore" horiz-adv-x="549" d="M144 672H404V596H144V672Z" />
<glyph unicode="&#xb0;" glyph-name="degree" horiz-adv-x="348" d="M175 413Q147 413 123 423T80 451T51 494T40 549Q40 579 50 604T79 647T122 675T175 685Q203 685 227 675T270 647T299 604T310 549Q310 519 300 494T271 451T228 423T175 413ZM175 472Q207
472 226 493T246 549Q246 584 227 605T175 627Q143 627 124 606T104 549Q104 515 123 494T175 472Z" />
<glyph unicode="&#xb1;" glyph-name="plusminus" horiz-adv-x="513" d="M213 299H34V382H213V561H300V382H479V299H300V143H213V299ZM34 83H479V0H34V83Z" />
<glyph unicode="&#xb2;" glyph-name="two.sups" horiz-adv-x="372" d="M48 488Q132 560 179 609T226 699Q226 732 209 751T160 770Q138 770 119 756T83 718L33 764Q59 801 95 821T173 842Q235 842 272 809T310 713Q310 687 301 663T274 615T235 565T186 513H327V440H48V488Z"
/>
<glyph unicode="&#xb3;" glyph-name="three.sups" horiz-adv-x="372" d="M85 548Q121 495 176 495Q204 495 223 510T243 553Q243 582 216 597T136 613V664Q179 664 203 680T228 724Q228 747 212 761T169 775Q149 775 131 763T97 732L47 776Q76 808 107 825T183
842Q209 842 232 835T274 814T302 780T313 735Q313 702 297 680T251 642Q283 631 305 608T328 547Q328 520 317 498T285 461T239 437T183 428Q133 428 94 449T31 506L85 548Z" />
<glyph unicode="&#xb4;" glyph-name="acute" horiz-adv-x="549" d="M286 573H200L290 719H404L286 573Z" />
<glyph unicode="&#xb5;" glyph-name="uni00B5" horiz-adv-x="562" d="M73 491H188V198Q188 137 206 112T265 87Q297 87 321 103T374 155V491H489V0H394L386 72H382Q359 34 328 14T258 -6Q234 -6 215 0T182 26L188 -64V-200H73V491Z" />
<glyph unicode="&#xb6;" glyph-name="paragraph" horiz-adv-x="599" d="M387 654H503V-80H387V654ZM295 212Q241 212 195 225T114 267T60 337T40 436Q40 497 59 538T111 605T190 642T288 654H332V212H295Z" />
<glyph unicode="&#xb7;" glyph-name="middot" horiz-adv-x="275" d="M63 321Q63 355 84 377T138 399Q170 399 191 377T212 321Q212 287 191 265T138 243Q106 243 85 265T63 321Z" />
<glyph unicode="&#xb8;" glyph-name="cedilla" horiz-adv-x="549" d="M249 3H319L296 -46Q321 -55 338 -71T355 -119Q355 -143 342 -160T307 -189T255 -208T194 -217L184 -167Q222 -162 246 -152T270 -121Q270 -105 256 -94T209 -75L249 3Z" />
<glyph unicode="&#xb9;" glyph-name="one.sups" horiz-adv-x="372" d="M168 734H82V788Q119 794 141 803T186 830H255V440H168V734Z" />
<glyph unicode="&#xba;" glyph-name="ordmasculine" horiz-adv-x="369" d="M184 256Q152 256 124 267T74 301T40 354T27 426Q27 467 39 499T74 553T124 586T184 598Q215 598 243 587T294 553T328 499T341 426Q341 386 329 355T294 301T244 268T184 256ZM184 323Q219
323 237 351T256 426Q256 474 238 502T184 531Q149 531 131 503T112 426Q112 380 130 352T184 323Z" />
<glyph unicode="&#xbb;" glyph-name="guillemotright" horiz-adv-x="456" d="M168 252L54 406L99 443L235 294V210L99 61L54 97L168 252ZM342 252L228 406L273 443L409 294V210L273 61L228 97L342 252Z" />
<glyph unicode="&#xbc;" glyph-name="onequarter" horiz-adv-x="795" d="M142 558H56V612Q93 618 115 627T160 654H229V264H142V558ZM183 -12L540 666H610L254 -12H183ZM640 154V209L645 322H641L596 243L545 154H640ZM775 95H717V0H640V95H461V139L613 390H717V154H775V95Z"
/>
<glyph unicode="&#xbd;" glyph-name="onehalf" horiz-adv-x="827" d="M142 558H56V612Q93 618 115 627T160 654H229V264H142V558ZM165 -12L522 666H592L236 -12H165ZM503 48Q587 120 634 169T681 259Q681 292 664 311T615 330Q593 330 574 316T538 278L488 324Q514
361 550 381T628 402Q690 402 727 369T765 273Q765 247 756 223T729 175T690 125T641 73H782V0H503V48Z" />
<glyph unicode="&#xbe;" glyph-name="threequarters" horiz-adv-x="807" d="M84 372Q120 319 175 319Q203 319 222 334T242 377Q242 406 215 421T135 437V488Q178 488 202 504T227 548Q227 571 211 585T168 599Q148 599 130 587T96 556L46 600Q75 632 106 649T182
666Q208 666 231 659T273 638T301 604T312 559Q312 526 296 504T250 466Q282 455 304 432T327 371Q327 344 316 322T284 285T238 261T182 252Q132 252 93 273T30 330L84 372ZM212 -12L569 666H639L283 -12H212ZM652 154V209L657 322H653L608 243L557 154H652ZM787
95H729V0H652V95H473V139L625 390H729V154H787V95Z" />
<glyph unicode="&#xbf;" glyph-name="questiondown" horiz-adv-x="444" d="M288 276Q293 239 285 210T263 155T230 109T195 67T167 26T156 -17Q156 -52 177 -74T238 -97Q268 -97 293 -83T340 -45L405 -104Q372 -142 328 -166T230 -191Q189 -191 156 -181T97 -149T59
-97T45 -25Q45 7 56 32T85 81T121 125T155 169T180 218T186 276H288ZM310 426Q310 391 289 369T236 347Q204 347 183 369T162 426Q162 459 183 481T236 503Q268 503 289 481T310 426Z" />
<glyph unicode="&#xc0;" glyph-name="Agrave" horiz-adv-x="558" d="M361 268L338 348Q322 400 308 455T279 564H275Q261 509 247 455T217 348L194 268H361ZM387 177H167L116 0H-2L211 654H347L560 0H438L387 177ZM130 820H256L340 704H247L130 820Z" />
<glyph unicode="&#xc1;" glyph-name="Aacute" horiz-adv-x="558" d="M361 268L338 348Q322 400 308 455T279 564H275Q261 509 247 455T217 348L194 268H361ZM387 177H167L116 0H-2L211 654H347L560 0H438L387 177ZM307 704H214L298 820H424L307 704Z" />
<glyph unicode="&#xc2;" glyph-name="Acircumflex" horiz-adv-x="558" d="M361 268L338 348Q322 400 308 455T279 564H275Q261 509 247 455T217 348L194 268H361ZM387 177H167L116 0H-2L211 654H347L560 0H438L387 177ZM125 704L221 820H333L429 704H339L279 768H275L215
704H125Z" />
<glyph unicode="&#xc3;" glyph-name="Atilde" horiz-adv-x="558" d="M361 268L338 348Q322 400 308 455T279 564H275Q261 509 247 455T217 348L194 268H361ZM387 177H167L116 0H-2L211 654H347L560 0H438L387 177ZM339 707Q319 707 303 714T272 731T245 748T219
756Q205 756 195 744T180 707H119Q125 765 151 797T215 829Q235 829 251 822T282 805T309 789T335 781Q349 781 359 792T374 829H435Q429 772 403 740T339 707Z" />
<glyph unicode="&#xc4;" glyph-name="Adieresis" horiz-adv-x="558" d="M361 268L338 348Q322 400 308 455T279 564H275Q261 509 247 455T217 348L194 268H361ZM387 177H167L116 0H-2L211 654H347L560 0H438L387 177ZM184 708Q158 708 142 724T125 767Q125 793
141 810T184 827Q210 827 227 810T244 767Q244 741 227 725T184 708ZM370 708Q344 708 327 724T310 767Q310 793 327 810T370 827Q396 827 412 810T429 767Q429 741 413 725T370 708Z" />
<glyph unicode="&#xc5;" glyph-name="Aring" horiz-adv-x="558" d="M361 268L338 348Q322 400 308 455T279 564H275Q261 509 247 455T217 348L194 268H361ZM387 177H167L116 0H-2L211 654H347L560 0H438L387 177ZM277 698Q231 698 203 723T174 791Q174 833 202
858T277 884Q322 884 351 859T380 791Q380 748 351 723T277 698ZM277 744Q295 744 308 756T321 791Q321 813 308 825T277 838Q258 838 246 826T233 791Q233 768 245 756T277 744Z" />
<glyph unicode="&#xc6;" glyph-name="AE" horiz-adv-x="834" d="M394 261V565H390Q366 514 343 464T297 366L246 261H394ZM783 98V0H394V170H202L119 0H-3L324 654H773V556H510V389H731V291H510V98H783Z" />
<glyph unicode="&#xc7;" glyph-name="Ccedilla" horiz-adv-x="576" d="M49 325Q49 405 72 468T137 576T233 643T351 666Q411 666 458 641T537 583L472 511Q447 536 419 550T352 565Q311 565 278 549T220 502T182 427T168 328Q168 216 216 153T348 89Q392 89 424
106T485 154L550 83Q510 37 459 13T346 -12Q283 -12 229 10T135 75T72 181T49 325ZM317 3H387L364 -46Q389 -55 406 -71T423 -119Q423 -143 410 -160T375 -189T323 -208T262 -217L252 -167Q290 -162 314 -152T338 -121Q338 -105 324 -94T277 -75L317 3Z" />
<glyph unicode="&#xc8;" glyph-name="Egrave" horiz-adv-x="538" d="M83 654H477V556H199V389H434V291H199V98H487V0H83V654ZM140 820H266L350 704H257L140 820Z" />
<glyph unicode="&#xc9;" glyph-name="Eacute" horiz-adv-x="538" d="M83 654H477V556H199V389H434V291H199V98H487V0H83V654ZM317 704H224L308 820H434L317 704Z" />
<glyph unicode="&#xca;" glyph-name="Ecircumflex" horiz-adv-x="538" d="M83 654H477V556H199V389H434V291H199V98H487V0H83V654ZM135 704L231 820H343L439 704H349L289 768H285L225 704H135Z" />
<glyph unicode="&#xcb;" glyph-name="Edieresis" horiz-adv-x="538" d="M83 654H477V556H199V389H434V291H199V98H487V0H83V654ZM194 708Q168 708 152 724T135 767Q135 793 151 810T194 827Q220 827 237 810T254 767Q254 741 237 725T194 708ZM380 708Q354 708
337 724T320 767Q320 793 337 810T380 827Q406 827 422 810T439 767Q439 741 423 725T380 708Z" />
<glyph unicode="&#xcc;" glyph-name="Igrave" horiz-adv-x="282" d="M83 654H199V0H83V654ZM-6 820H120L204 704H111L-6 820Z" />
<glyph unicode="&#xcd;" glyph-name="Iacute" horiz-adv-x="282" d="M83 654H199V0H83V654ZM171 704H78L162 820H288L171 704Z" />
<glyph unicode="&#xce;" glyph-name="Icircumflex" horiz-adv-x="282" d="M83 654H199V0H83V654ZM-11 704L85 820H197L293 704H203L143 768H139L79 704H-11Z" />
<glyph unicode="&#xcf;" glyph-name="Idieresis" horiz-adv-x="282" d="M83 654H199V0H83V654ZM48 708Q22 708 6 724T-11 767Q-11 793 5 810T48 827Q74 827 91 810T108 767Q108 741 91 725T48 708ZM234 708Q208 708 191 724T174 767Q174 793 191 810T234 827Q260
827 276 810T293 767Q293 741 277 725T234 708Z" />
<glyph unicode="&#xd0;" glyph-name="Eth" horiz-adv-x="649" d="M274 94Q373 94 427 151T481 330Q481 450 427 505T274 560H223V370H360V311H223V94H274ZM281 654Q432 654 516 573T600 330Q600 249 579 187T517 84T418 21T287 0H107V311H30V366L107 370V654H281Z" />
<glyph unicode="&#xd1;" glyph-name="Ntilde" horiz-adv-x="656" d="M83 654H202L406 286L473 147H477Q473 198 468 256T462 370V654H573V0H454L250 368L183 507H179Q183 455 188 398T194 286V0H83V654ZM392 707Q372 707 356 714T325 731T298 748T272 756Q258
756 248 744T233 707H172Q178 765 204 797T268 829Q288 829 304 822T335 805T362 789T388 781Q402 781 412 792T427 829H488Q482 772 456 740T392 707Z" />
<glyph unicode="&#xd2;" glyph-name="Ograve" horiz-adv-x="674" d="M337 -12Q273 -12 220 11T129 79T70 187T49 330Q49 409 70 471T129 577T220 643T337 666Q401 666 454 643T545 577T605 472T626 330Q626 250 605 187T546 80T454 12T337 -12ZM337 89Q376 89
407 106T460 154T494 230T506 330Q506 440 461 502T337 565Q259 565 214 503T168 330Q168 275 180 231T214 155T267 106T337 89ZM190 820H316L400 704H307L190 820Z" />
<glyph unicode="&#xd3;" glyph-name="Oacute" horiz-adv-x="674" d="M337 -12Q273 -12 220 11T129 79T70 187T49 330Q49 409 70 471T129 577T220 643T337 666Q401 666 454 643T545 577T605 472T626 330Q626 250 605 187T546 80T454 12T337 -12ZM337 89Q376 89
407 106T460 154T494 230T506 330Q506 440 461 502T337 565Q259 565 214 503T168 330Q168 275 180 231T214 155T267 106T337 89ZM367 704H274L358 820H484L367 704Z" />
<glyph unicode="&#xd4;" glyph-name="Ocircumflex" horiz-adv-x="674" d="M337 -12Q273 -12 220 11T129 79T70 187T49 330Q49 409 70 471T129 577T220 643T337 666Q401 666 454 643T545 577T605 472T626 330Q626 250 605 187T546 80T454 12T337 -12ZM337 89Q376
89 407 106T460 154T494 230T506 330Q506 440 461 502T337 565Q259 565 214 503T168 330Q168 275 180 231T214 155T267 106T337 89ZM185 704L281 820H393L489 704H399L339 768H335L275 704H185Z" />
<glyph unicode="&#xd5;" glyph-name="Otilde" horiz-adv-x="674" d="M337 -12Q273 -12 220 11T129 79T70 187T49 330Q49 409 70 471T129 577T220 643T337 666Q401 666 454 643T545 577T605 472T626 330Q626 250 605 187T546 80T454 12T337 -12ZM337 89Q376 89
407 106T460 154T494 230T506 330Q506 440 461 502T337 565Q259 565 214 503T168 330Q168 275 180 231T214 155T267 106T337 89ZM399 707Q379 707 363 714T332 731T305 748T279 756Q265 756 255 744T240 707H179Q185 765 211 797T275 829Q295 829 311 822T342 805T369
789T395 781Q409 781 419 792T434 829H495Q489 772 463 740T399 707Z" />
<glyph unicode="&#xd6;" glyph-name="Odieresis" horiz-adv-x="674" d="M337 -12Q273 -12 220 11T129 79T70 187T49 330Q49 409 70 471T129 577T220 643T337 666Q401 666 454 643T545 577T605 472T626 330Q626 250 605 187T546 80T454 12T337 -12ZM337 89Q376
89 407 106T460 154T494 230T506 330Q506 440 461 502T337 565Q259 565 214 503T168 330Q168 275 180 231T214 155T267 106T337 89ZM244 708Q218 708 202 724T185 767Q185 793 201 810T244 827Q270 827 287 810T304 767Q304 741 287 725T244 708ZM430 708Q404 708
387 724T370 767Q370 793 387 810T430 827Q456 827 472 810T489 767Q489 741 473 725T430 708Z" />
<glyph unicode="&#xd7;" glyph-name="multiply" horiz-adv-x="513" d="M49 179L197 329L49 480L108 540L256 388L405 540L464 480L315 329L464 179L405 119L256 270L108 119L49 179Z" />
<glyph unicode="&#xd8;" glyph-name="Oslash" horiz-adv-x="674" d="M237 130Q278 89 339 89Q378 89 409 106T462 154T496 230T508 330Q508 398 489 450L237 130ZM446 522Q403 565 339 565Q261 565 216 503T170 330Q170 292 175 259T192 199L446 522ZM568 550Q597
508 612 453T627 330Q627 250 606 187T547 80T456 12T339 -12Q240 -12 168 43L106 -36L45 12L114 100Q83 144 67 201T50 330Q50 409 71 471T130 577T222 643T339 666Q442 666 514 608L578 690L640 642L568 550Z" />
<glyph unicode="&#xd9;" glyph-name="Ugrave" horiz-adv-x="655" d="M80 654H196V278Q196 225 205 189T232 130T274 99T328 89Q358 89 383 98T426 130T454 188T464 278V654H575V287Q575 206 558 150T509 57T431 5T328 -12Q271 -12 226 4T148 57T98 149T80 287V654ZM180
820H306L390 704H297L180 820Z" />
<glyph unicode="&#xda;" glyph-name="Uacute" horiz-adv-x="655" d="M80 654H196V278Q196 225 205 189T232 130T274 99T328 89Q358 89 383 98T426 130T454 188T464 278V654H575V287Q575 206 558 150T509 57T431 5T328 -12Q271 -12 226 4T148 57T98 149T80 287V654ZM357
704H264L348 820H474L357 704Z" />
<glyph unicode="&#xdb;" glyph-name="Ucircumflex" horiz-adv-x="655" d="M80 654H196V278Q196 225 205 189T232 130T274 99T328 89Q358 89 383 98T426 130T454 188T464 278V654H575V287Q575 206 558 150T509 57T431 5T328 -12Q271 -12 226 4T148 57T98 149T80
287V654ZM175 704L271 820H383L479 704H389L329 768H325L265 704H175Z" />
<glyph unicode="&#xdc;" glyph-name="Udieresis" horiz-adv-x="655" d="M80 654H196V278Q196 225 205 189T232 130T274 99T328 89Q358 89 383 98T426 130T454 188T464 278V654H575V287Q575 206 558 150T509 57T431 5T328 -12Q271 -12 226 4T148 57T98 149T80 287V654ZM234
708Q208 708 192 724T175 767Q175 793 191 810T234 827Q260 827 277 810T294 767Q294 741 277 725T234 708ZM420 708Q394 708 377 724T360 767Q360 793 377 810T420 827Q446 827 462 810T479 767Q479 741 463 725T420 708Z" />
<glyph unicode="&#xdd;" glyph-name="Yacute" horiz-adv-x="501" d="M192 243L-4 654H120L191 487Q205 450 219 416T249 343H253Q269 381 284 415T313 487L384 654H505L308 243V0H192V243ZM280 704H187L271 820H397L280 704Z" />
<glyph unicode="&#xde;" glyph-name="Thorn" horiz-adv-x="600" d="M83 654H199V550H303Q357 550 402 540T481 506T533 444T552 348Q552 293 533 253T481 187T402 149T303 136H199V0H83V654ZM294 229Q438 229 438 348Q438 409 402 433T294 457H199V229H294Z" />
<glyph unicode="&#xdf;" glyph-name="germandbls" horiz-adv-x="604" d="M73 501Q73 549 87 588T128 656T195 700T290 716Q335 716 369 703T427 669T462 619T474 560Q474 523 461 498T432 452T403 412T390 371Q390 351 404 337T438 311T483 287T528 256T563 210T577
144Q577 111 566 83T532 33T478 0T404 -12Q362 -12 327 0T258 35L300 114Q351 75 401 75Q434 75 452 94T470 139Q470 163 456 179T422 208T377 233T333 261T298 300T284 357Q284 388 296 410T323 453T350 495T363 547Q363 581 345 603T290 625Q240 625 214 589T187
484V0H73V501Z" />
<glyph unicode="&#xe0;" glyph-name="agrave" horiz-adv-x="523" d="M52 132Q52 211 121 254T341 314Q341 333 336 350T321 381T294 402T252 410Q215 410 181 396T114 362L72 439Q113 465 163 484T273 503Q366 503 411 449T456 291V0H362L353 54H350Q317 26 280
7T198 -12Q133 -12 93 27T52 132ZM164 141Q164 108 183 93T234 78Q264 78 289 92T341 132V242Q291 236 257 226T203 204T173 175T164 141ZM145 719H259L349 573H263L145 719Z" />
<glyph unicode="&#xe1;" glyph-name="aacute" horiz-adv-x="523" d="M52 132Q52 211 121 254T341 314Q341 333 336 350T321 381T294 402T252 410Q215 410 181 396T114 362L72 439Q113 465 163 484T273 503Q366 503 411 449T456 291V0H362L353 54H350Q317 26 280
7T198 -12Q133 -12 93 27T52 132ZM164 141Q164 108 183 93T234 78Q264 78 289 92T341 132V242Q291 236 257 226T203 204T173 175T164 141ZM287 573H201L291 719H405L287 573Z" />
<glyph unicode="&#xe2;" glyph-name="acircumflex" horiz-adv-x="523" d="M52 132Q52 211 121 254T341 314Q341 333 336 350T321 381T294 402T252 410Q215 410 181 396T114 362L72 439Q113 465 163 484T273 503Q366 503 411 449T456 291V0H362L353 54H350Q317
26 280 7T198 -12Q133 -12 93 27T52 132ZM164 141Q164 108 183 93T234 78Q264 78 289 92T341 132V242Q291 236 257 226T203 204T173 175T164 141ZM229 719H321L417 573H337L277 658H273L213 573H133L229 719Z" />
<glyph unicode="&#xe3;" glyph-name="atilde" horiz-adv-x="523" d="M52 132Q52 211 121 254T341 314Q341 333 336 350T321 381T294 402T252 410Q215 410 181 396T114 362L72 439Q113 465 163 484T273 503Q366 503 411 449T456 291V0H362L353 54H350Q317 26 280
7T198 -12Q133 -12 93 27T52 132ZM164 141Q164 108 183 93T234 78Q264 78 289 92T341 132V242Q291 236 257 226T203 204T173 175T164 141ZM122 577Q128 634 152 666T215 698Q234 698 250 691T281 674T307 658T331 650Q357 650 367 698H428Q422 641 398 609T335
577Q315 577 299 584T270 601T244 617T219 625Q193 625 183 577H122V577Z" />
<glyph unicode="&#xe4;" glyph-name="adieresis" horiz-adv-x="523" d="M52 132Q52 211 121 254T341 314Q341 333 336 350T321 381T294 402T252 410Q215 410 181 396T114 362L72 439Q113 465 163 484T273 503Q366 503 411 449T456 291V0H362L353 54H350Q317 26
280 7T198 -12Q133 -12 93 27T52 132ZM164 141Q164 108 183 93T234 78Q264 78 289 92T341 132V242Q291 236 257 226T203 204T173 175T164 141ZM182 579Q156 579 140 596T123 639Q123 664 139 681T182 698Q208 698 225 681T242 639Q242 613 225 596T182 579ZM368
579Q342 579 325 596T308 639Q308 664 325 681T368 698Q394 698 410 681T427 639Q427 613 411 596T368 579Z" />
<glyph unicode="&#xe5;" glyph-name="aring" horiz-adv-x="523" d="M52 132Q52 211 121 254T341 314Q341 333 336 350T321 381T294 402T252 410Q215 410 181 396T114 362L72 439Q113 465 163 484T273 503Q366 503 411 449T456 291V0H362L353 54H350Q317 26 280
7T198 -12Q133 -12 93 27T52 132ZM164 141Q164 108 183 93T234 78Q264 78 289 92T341 132V242Q291 236 257 226T203 204T173 175T164 141ZM275 545Q229 545 201 571T172 642Q172 687 200 713T275 740Q321 740 349 714T378 642Q378 598 350 572T275 545ZM275 591Q294
591 306 605T319 642Q319 665 307 679T275 694Q256 694 244 680T231 642Q231 619 243 605T275 591Z" />
<glyph unicode="&#xe6;" glyph-name="ae" horiz-adv-x="785" d="M164 141Q164 108 183 93T234 78Q263 78 295 93T354 136Q346 153 343 175T338 219L336 242Q242 229 203 204T164 141ZM72 439Q113 465 162 484T265 503Q316 503 350 480T404 414Q434 456 471 479T557
503Q604 503 639 486T699 437T735 363T748 268Q748 234 743 214H443Q449 150 486 115T578 80Q610 80 636 90T689 118L730 41Q695 18 653 3T563 -12Q505 -12 463 12T392 72Q341 28 294 8T198 -12Q133 -12 93 27T52 132Q52 211 120 254T338 314Q337 333 333 350T318
381T292 402T250 410Q215 410 181 396T114 362L72 439ZM649 287Q649 347 625 380T553 414Q511 414 481 381T443 287H649Z" />
<glyph unicode="&#xe7;" glyph-name="ccedilla" horiz-adv-x="462" d="M41 245Q41 306 61 354T115 435T193 485T287 503Q335 503 370 487T431 446L376 373Q356 390 336 399T293 409Q233 409 196 365T159 245Q159 171 195 127T290 82Q320 82 345 94T391 124L439
51Q404 20 362 4T278 -12Q228 -12 185 5T109 55T59 136T41 245ZM249 3H319L296 -46Q321 -55 338 -71T355 -119Q355 -143 342 -160T307 -189T255 -208T194 -217L184 -167Q222 -162 246 -152T270 -121Q270 -105 256 -94T209 -75L249 3Z" />
<glyph unicode="&#xe8;" glyph-name="egrave" horiz-adv-x="507" d="M41 245Q41 305 60 353T110 434T183 485T267 503Q317 503 355 486T418 438T457 364T470 270Q470 236 465 216H153Q161 149 199 113T298 77Q330 77 357 86T412 113L451 41Q416 18 373 3T283 -12Q232
-12 188 5T111 56T60 136T41 245ZM370 289Q370 348 346 381T270 414Q226 414 193 383T152 289H370ZM137 719H251L341 573H255L137 719Z" />
<glyph unicode="&#xe9;" glyph-name="eacute" horiz-adv-x="507" d="M41 245Q41 305 60 353T110 434T183 485T267 503Q317 503 355 486T418 438T457 364T470 270Q470 236 465 216H153Q161 149 199 113T298 77Q330 77 357 86T412 113L451 41Q416 18 373 3T283 -12Q232
-12 188 5T111 56T60 136T41 245ZM370 289Q370 348 346 381T270 414Q226 414 193 383T152 289H370ZM279 573H193L283 719H397L279 573Z" />
<glyph unicode="&#xea;" glyph-name="ecircumflex" horiz-adv-x="507" d="M41 245Q41 305 60 353T110 434T183 485T267 503Q317 503 355 486T418 438T457 364T470 270Q470 236 465 216H153Q161 149 199 113T298 77Q330 77 357 86T412 113L451 41Q416 18 373 3T283
-12Q232 -12 188 5T111 56T60 136T41 245ZM370 289Q370 348 346 381T270 414Q226 414 193 383T152 289H370ZM221 719H313L409 573H329L269 658H265L205 573H125L221 719Z" />
<glyph unicode="&#xeb;" glyph-name="edieresis" horiz-adv-x="507" d="M41 245Q41 305 60 353T110 434T183 485T267 503Q317 503 355 486T418 438T457 364T470 270Q470 236 465 216H153Q161 149 199 113T298 77Q330 77 357 86T412 113L451 41Q416 18 373 3T283
-12Q232 -12 188 5T111 56T60 136T41 245ZM370 289Q370 348 346 381T270 414Q226 414 193 383T152 289H370ZM174 579Q148 579 132 596T115 639Q115 664 131 681T174 698Q200 698 217 681T234 639Q234 613 217 596T174 579ZM360 579Q334 579 317 596T300 639Q300
664 317 681T360 698Q386 698 402 681T419 639Q419 613 403 596T360 579Z" />
<glyph unicode="&#xec;" glyph-name="igrave" horiz-adv-x="262" d="M73 491H188V0H73V491ZM1 719H115L205 573H119L1 719Z" />
<glyph unicode="&#xed;" glyph-name="iacute" horiz-adv-x="262" d="M73 491H188V0H73V491ZM143 573H57L147 719H261L143 573Z" />
<glyph unicode="&#xee;" glyph-name="icircumflex" horiz-adv-x="262" d="M73 491H188V0H73V491ZM85 719H177L273 573H193L133 658H129L69 573H-11L85 719Z" />
<glyph unicode="&#xef;" glyph-name="idieresis" horiz-adv-x="262" d="M73 491H188V0H73V491ZM38 579Q12 579 -4 596T-21 639Q-21 664 -5 681T38 698Q64 698 81 681T98 639Q98 613 81 596T38 579ZM224 579Q198 579 181 596T164 639Q164 664 181 681T224 698Q250
698 266 681T283 639Q283 613 267 596T224 579Z" />
<glyph unicode="&#xf0;" glyph-name="eth" horiz-adv-x="552" d="M274 82Q329 82 359 127T389 256Q389 269 389 281T387 306Q360 340 332 352T273 364Q218 364 186 327T154 225Q154 192 163 166T189 121T228 92T274 82ZM363 603Q422 543 460 460T498 262Q498 202
482 152T437 65T365 8T271 -12Q226 -12 186 4T115 51T66 126T48 225Q48 277 64 319T109 390T174 435T252 451Q286 451 317 439T372 397Q358 448 334 487T276 559L134 487L103 540L225 602Q202 619 177 634T124 664L175 735Q211 716 246 695T313 647L456 720L487
666L363 603Z" />
<glyph unicode="&#xf1;" glyph-name="ntilde" horiz-adv-x="560" d="M73 491H168L176 425H180Q213 457 251 480T341 503Q420 503 456 453T492 308V0H377V293Q377 354 359 379T300 404Q268 404 244 389T188 343V0H73V491ZM147 577Q153 634 177 666T240 698Q259
698 275 691T306 674T332 658T356 650Q382 650 392 698H453Q447 641 423 609T360 577Q340 577 324 584T295 601T269 617T244 625Q218 625 208 577H147V577Z" />
<glyph unicode="&#xf2;" glyph-name="ograve" horiz-adv-x="549" d="M41 245Q41 306 60 354T111 435T186 485T274 503Q320 503 362 486T437 435T488 354T508 245Q508 184 489 136T437 55T363 5T274 -12Q228 -12 186 5T112 55T60 136T41 245ZM159 245Q159 171 189
127T274 82Q328 82 359 126T390 245Q390 320 359 364T274 409Q220 409 190 365T159 245ZM144 719H258L348 573H262L144 719Z" />
<glyph unicode="&#xf3;" glyph-name="oacute" horiz-adv-x="549" d="M41 245Q41 306 60 354T111 435T186 485T274 503Q320 503 362 486T437 435T488 354T508 245Q508 184 489 136T437 55T363 5T274 -12Q228 -12 186 5T112 55T60 136T41 245ZM159 245Q159 171 189
127T274 82Q328 82 359 126T390 245Q390 320 359 364T274 409Q220 409 190 365T159 245ZM286 573H200L290 719H404L286 573Z" />
<glyph unicode="&#xf4;" glyph-name="ocircumflex" horiz-adv-x="549" d="M41 245Q41 306 60 354T111 435T186 485T274 503Q320 503 362 486T437 435T488 354T508 245Q508 184 489 136T437 55T363 5T274 -12Q228 -12 186 5T112 55T60 136T41 245ZM159 245Q159
171 189 127T274 82Q328 82 359 126T390 245Q390 320 359 364T274 409Q220 409 190 365T159 245ZM228 719H320L416 573H336L276 658H272L212 573H132L228 719Z" />
<glyph unicode="&#xf5;" glyph-name="otilde" horiz-adv-x="549" d="M41 245Q41 306 60 354T111 435T186 485T274 503Q320 503 362 486T437 435T488 354T508 245Q508 184 489 136T437 55T363 5T274 -12Q228 -12 186 5T112 55T60 136T41 245ZM159 245Q159 171 189
127T274 82Q328 82 359 126T390 245Q390 320 359 364T274 409Q220 409 190 365T159 245ZM121 577Q127 634 151 666T214 698Q233 698 249 691T280 674T306 658T330 650Q356 650 366 698H427Q421 641 397 609T334 577Q314 577 298 584T269 601T243 617T218 625Q192
625 182 577H121V577Z" />
<glyph unicode="&#xf6;" glyph-name="odieresis" horiz-adv-x="549" d="M41 245Q41 306 60 354T111 435T186 485T274 503Q320 503 362 486T437 435T488 354T508 245Q508 184 489 136T437 55T363 5T274 -12Q228 -12 186 5T112 55T60 136T41 245ZM159 245Q159 171
189 127T274 82Q328 82 359 126T390 245Q390 320 359 364T274 409Q220 409 190 365T159 245ZM181 579Q155 579 139 596T122 639Q122 664 138 681T181 698Q207 698 224 681T241 639Q241 613 224 596T181 579ZM367 579Q341 579 324 596T307 639Q307 664 324 681T367
698Q393 698 409 681T426 639Q426 613 410 596T367 579Z" />
<glyph unicode="&#xf7;" glyph-name="divide" horiz-adv-x="513" d="M256 444Q227 444 208 462T188 510Q188 539 207 557T256 575Q285 575 304 557T324 510Q324 481 305 463T256 444ZM188 150Q188 179 207 197T256 215Q285 215 304 197T324 150Q324 121 305 103T256
84Q227 84 208 102T188 150ZM34 372H479V288H34V372Z" />
<glyph unicode="&#xf8;" glyph-name="oslash" horiz-adv-x="549" d="M199 108Q229 78 274 78Q328 78 362 122T396 239Q396 292 382 331L199 108ZM349 384Q318 413 274 413Q220 413 187 368T153 251Q153 199 167 160L349 384ZM453 418Q479 386 493 343T508 245Q508
184 489 136T437 55T363 5T274 -12Q237 -12 202 -1T138 32L92 -24L46 12L96 73Q70 105 56 148T41 245Q41 306 60 354T111 435T186 485T274 503Q351 503 410 459L457 516L503 480L453 418Z" />
<glyph unicode="&#xf9;" glyph-name="ugrave" horiz-adv-x="556" d="M68 491H183V198Q183 137 201 112T259 87Q291 87 315 103T368 155V491H483V0H389L380 72H377Q345 34 308 11T219 -12Q140 -12 104 38T68 183V491ZM149 719H263L353 573H267L149 719Z" />
<glyph unicode="&#xfa;" glyph-name="uacute" horiz-adv-x="556" d="M68 491H183V198Q183 137 201 112T259 87Q291 87 315 103T368 155V491H483V0H389L380 72H377Q345 34 308 11T219 -12Q140 -12 104 38T68 183V491ZM291 573H205L295 719H409L291 573Z" />
<glyph unicode="&#xfb;" glyph-name="ucircumflex" horiz-adv-x="556" d="M68 491H183V198Q183 137 201 112T259 87Q291 87 315 103T368 155V491H483V0H389L380 72H377Q345 34 308 11T219 -12Q140 -12 104 38T68 183V491ZM233 719H325L421 573H341L281 658H277L217
573H137L233 719Z" />
<glyph unicode="&#xfc;" glyph-name="udieresis" horiz-adv-x="556" d="M68 491H183V198Q183 137 201 112T259 87Q291 87 315 103T368 155V491H483V0H389L380 72H377Q345 34 308 11T219 -12Q140 -12 104 38T68 183V491ZM186 579Q160 579 144 596T127 639Q127 664
143 681T186 698Q212 698 229 681T246 639Q246 613 229 596T186 579ZM372 579Q346 579 329 596T312 639Q312 664 329 681T372 698Q398 698 414 681T431 639Q431 613 415 596T372 579Z" />
<glyph unicode="&#xfd;" glyph-name="yacute" horiz-adv-x="495" d="M63 -102Q70 -104 79 -106T98 -109Q137 -109 160 -86T196 -25L205 6L12 491H129L214 250Q225 218 235 183T257 112H261Q270 146 279 181T298 250L372 491H483L305 -22Q290 -64 272 -97T231 -153T177
-189T106 -202Q86 -202 71 -200T42 -192L63 -102V-102ZM267 573H181L271 719H385L267 573Z" />
<glyph unicode="&#xfe;" glyph-name="thorn" horiz-adv-x="564" d="M188 -194H73V706H188V524L186 447Q215 471 249 487T322 503Q369 503 406 486T468 435T507 356T521 253Q521 190 504 141T457 58T390 6T311 -12Q276 -12 246 1T186 38L188 -40V-194ZM188 124Q215
101 240 92T287 83Q336 83 369 125T402 252Q402 326 377 367T296 408Q244 408 188 353V124Z" />
<glyph unicode="&#xff;" glyph-name="ydieresis" horiz-adv-x="495" d="M63 -102Q70 -104 79 -106T98 -109Q137 -109 160 -86T196 -25L205 6L12 491H129L214 250Q225 218 235 183T257 112H261Q270 146 279 181T298 250L372 491H483L305 -22Q290 -64 272 -97T231
-153T177 -189T106 -202Q86 -202 71 -200T42 -192L63 -102V-102ZM162 579Q136 579 120 596T103 639Q103 664 119 681T162 698Q188 698 205 681T222 639Q222 613 205 596T162 579ZM348 579Q322 579 305 596T288 639Q288 664 305 681T348 698Q374 698 390 681T407
639Q407 613 391 596T348 579Z" />
<glyph unicode="&#x2013;" glyph-name="endash" horiz-adv-x="480" d="M42 290H438V214H42V290Z" />
<glyph unicode="&#x2014;" glyph-name="emdash" horiz-adv-x="800" d="M42 290H758V214H42V290Z" />
<glyph unicode="&#x2018;" glyph-name="quoteleft" horiz-adv-x="275" d="M208 638Q166 614 146 586T125 512Q128 513 134 513Q161 513 180 497T200 451Q200 419 182 401T134 382Q96 382 76 411T56 493Q56 624 180 689L208 638Z" />
<glyph unicode="&#x2019;" glyph-name="quoteright" horiz-adv-x="275" d="M67 442Q109 466 129 494T150 568Q147 567 141 567Q115 567 96 583T76 629Q76 661 94 679T141 698Q179 698 199 669T220 587Q220 456 95 391L67 442Z" />
<glyph unicode="&#x201a;" glyph-name="quotesinglbase" horiz-adv-x="275" d="M67 -105Q109 -81 129 -53T150 21Q147 20 141 20Q115 20 96 36T76 82Q76 114 94 132T141 151Q179 151 199 122T220 40Q220 -91 95 -156L67 -105Z" />
<glyph unicode="&#x201c;" glyph-name="quotedblleft" horiz-adv-x="482" d="M208 638Q166 614 146 586T125 512Q128 513 134 513Q161 513 180 497T200 451Q200 419 182 401T134 382Q96 382 76 411T56 493Q56 624 180 689L208 638ZM415 638Q373 614 353 586T332
512Q335 513 341 513Q368 513 387 497T407 451Q407 419 389 401T341 382Q303 382 283 411T263 493Q263 624 387 689L415 638Z" />
<glyph unicode="&#x201d;" glyph-name="quotedblright" horiz-adv-x="482" d="M67 442Q109 466 129 494T150 568Q147 567 141 567Q115 567 96 583T76 629Q76 661 94 679T141 698Q179 698 199 669T220 587Q220 456 95 391L67 442ZM274 442Q316 466 336 494T357
568Q354 567 348 567Q322 567 303 583T283 629Q283 661 301 679T348 698Q386 698 406 669T427 587Q427 456 302 391L274 442Z" />
<glyph unicode="&#x201e;" glyph-name="quotedblbase" horiz-adv-x="482" d="M67 -105Q109 -81 129 -53T150 21Q147 20 141 20Q115 20 96 36T76 82Q76 114 94 132T141 151Q179 151 199 122T220 40Q220 -91 95 -156L67 -105ZM274 -105Q316 -81 336 -53T357 21Q354
20 348 20Q322 20 303 36T283 82Q283 114 301 132T348 151Q386 151 406 122T427 40Q427 -91 302 -156L274 -105Z" />
<glyph unicode="&#x2022;" glyph-name="bullet" horiz-adv-x="325" d="M162 133Q137 133 115 142T76 169T50 210T40 263Q40 291 49 315T75 356T114 383T162 393Q187 393 209 383T249 356T275 315T285 263Q285 234 276 211T249 170T210 143T162 133Z" />
<glyph unicode="&#x2039;" glyph-name="guilsinglleft" horiz-adv-x="282" d="M47 210V294L182 443L228 406L113 252L228 97L182 61L47 210Z" />
<glyph unicode="&#x203a;" glyph-name="guilsinglright" horiz-adv-x="282" d="M168 252L54 406L99 443L235 294V210L99 61L54 97L168 252Z" />
</font>
</defs>
</svg>
